Vernon Wells
Movie Trailer TV SpotEka Lagnachi Tisari Goshta
In the Room (2015)

Vampire's Kiss (1988) (1080p BluRay x265 HEVC 10bit AAC 2.0 Freet...

  • Category Movies
  • Type HEVC/x265
  • Language English
  • Total size 3.4 GB
  • Uploaded By QxR
  • Downloads 466
  • Last checked 41 minutes ago
  • Date uploaded 2 days ago
  • Seeders 18
  • Leechers 7

Vampire's Kiss

ComedyFantasyHorror

A publishing executive is visited and bitten by a vampire and starts exhibiting erratic behavior. He pushes his secretary to extremes as he tries to come to terms with his affliction. The vampire continues to visit and drink his blood, and as his madness deepens, it begins to look as if some of the events he's experiencing may be hallucinations.

Infohash : ECD55B909122A8B93BA575D05A5AA73B081B50F6





Media Information

Code:

General
Format : Matroska
Format version : Version 4 / Version 2
File size : 3.40 GiB
Duration : 1 h 43 min
Overall bit rate : 4 703 kb/s
Movie name : Vampire's Kiss
Encoded date : UTC 2018-04-13 19:53:30
Writing application : mkvmerge v22.0.0 ('At The End Of The World') 64-bit
Writing library : libebml v1.3.5 + libmatroska v1.4.8

Video
ID : 1
Format : HEVC
Format/Info : High Efficiency Video Coding
Format profile : Main [email protected]@Main
Codec ID : V_MPEGH/ISO/HEVC
Duration : 1 h 43 min
Bit rate : 4 464 kb/s
Width : 1 920 pixels
Height : 1 024 pixels
Display aspect ratio : 1.85:1
Frame rate mode : Constant
Frame rate : 23.976 (24000/1001) FPS
Color space : YUV
Chroma subsampling : 4:2:0
Bit depth : 10 bits
Bits/(Pixel*Frame) : 0.095
Stream size : 3.23 GiB (95%)
Writing library : x265 2.7+19-1fafca24a399:[Windows][MSVC 1900][64 bit] 10bit
Encoding settings : cpuid=1173503 / frame-threads=3 / numa-pools=8 / wpp / no-pmode / no-pme / no-psnr / no-ssim / log-level=2 / input-csp=1 / input-res=1920x1024 / interlace=0 / total-frames=149046 / level-idc=0 / high-tier=1 / uhd-bd=0 / ref=5 / no-allow-non-conformance / no-repeat-headers / annexb / no-aud / no-hrd / info / hash=0 / no-temporal-layers / open-gop / min-keyint=23 / keyint=250 / gop-lookahead=0 / bframes=8 / b-adapt=2 / b-pyramid / bframe-bias=0 / rc-lookahead=80 / lookahead-slices=0 / scenecut=40 / radl=0 / no-intra-refresh / ctu=64 / min-cu-size=8 / no-rect / no-amp / max-tu-size=32 / tu-inter-depth=1 / tu-intra-depth=1 / limit-tu=0 / rdoq-level=2 / dynamic-rd=0.00 / no-ssim-rd / signhide / no-tskip / nr-intra=0 / nr-inter=0 / no-constrained-intra / no-strong-intra-smoothing / max-merge=3 / limit-refs=3 / limit-modes / me=3 / subme=7 / merange=57 / temporal-mvp / weightp / weightb / no-analyze-src-pics / deblock=-3:-3 / no-sao / no-sao-non-deblock / rd=4 / no-early-skip / no-rskip / no-fast-intra / no-tskip-fast / no-cu-lossless / no-b-intra / no-splitrd-skip / rdpenalty=0 / psy-rd=1.85 / psy-rdoq=1.00 / no-rd-refine / no-lossless / cbqpoffs=0 / crqpoffs=0 / rc=crf / crf=19.5 / qcomp=0.60 / qpstep=4 / stats-write=0 / stats-read=0 / ipratio=1.40 / pbratio=1.30 / aq-mode=3 / aq-strength=0.80 / cutree / zone-count=0 / no-strict-cbr / qg-size=32 / no-rc-grain / qpmax=69 / qpmin=0 / no-const-vbv / sar=0 / overscan=0 / videoformat=5 / range=0 / colorprim=2 / transfer=2 / colormatrix=2 / chromaloc=0 / display-window=0 / max-cll=0,0 / min-luma=0 / max-luma=1023 / log2-max-poc-lsb=8 / vui-timing-info / vui-hrd-info / slices=1 / no-opt-qp-pps / no-opt-ref-list-length-pps / no-multi-pass-opt-rps / scenecut-bias=0.05 / no-opt-cu-delta-qp / no-aq-motion / no-hdr / no-hdr-opt / no-dhdr10-opt / no-idr-recovery-sei / analysis-reuse-level=5 / scale-factor=0 / refine-intra=0 / refine-inter=0 / refine-mv=0 / no-limit-sao / ctu-info=0 / no-lowpass-dct / refine-mv-type=0 / copy-pic=1 / max-ausize-factor=1.0 / no-dynamic-refine
Language : English
Default : Yes
Forced : No

Audio #1
ID : 2
Format : AAC
Format/Info : Advanced Audio Codec
Format profile : LC
Codec ID : A_AAC
Duration : 1 h 43 min
Bit rate : 144 kb/s
Channel(s) : 2 channels
Channel positions : Front: L R
Sampling rate : 48.0 kHz
Frame rate : 46.875 FPS (1024 spf)
Compression mode : Lossy
Delay relative to video : 20 ms
Stream size : 108 MiB (3%)
Language : English
Default : Yes
Forced : No

Audio #2
ID : 3
Format : AAC
Format/Info : Advanced Audio Codec
Format profile : HE-AAC / LC
Codec ID : A_AAC
Duration : 1 h 43 min
Bit rate : 80.0 kb/s
Channel(s) : 2 channels
Channel positions : Front: L R
Sampling rate : 48.0 kHz / 24.0 kHz
Frame rate : 23.438 FPS (1024 spf)
Compression mode : Lossy
Delay relative to video : 40 ms
Stream size : 59.3 MiB (2%)
Title : Commentary by Robert Bierman_Nicolas Cage
Language : English
Default : No
Forced : No

Subtitle
ID : 4
Format : PGS
Muxing mode : zlib
Codec ID : S_HDMV/PGS
Codec ID/Info : Picture based subtitle format used on BDs/HD-DVDs
Duration : 1 h 40 min
Bit rate : 36.2 kb/s
Count of elements : 2322
Stream size : 25.9 MiB (1%)
Title : English (SDH)
Language : English
Default : No
Forced : No

Menu
00:00:00.000 : en:00:00:00.000
00:10:47.522 : en:00:10:47.522
00:22:52.538 : en:00:22:52.538
00:40:48.738 : en:00:40:48.738
00:51:28.502 : en:00:51:28.502
01:06:47.045 : en:01:06:47.045
01:22:59.391 : en:01:22:59.391
01:39:33.217 : en:01:39:33.217

Source Information

Code:

Release:
Vampire's.Kiss.1988.BluRay.1080p.DTS-HD.MA.2.0.AVC.REMUX-FraMeSToR.mkv (17.21 GBs)


Note From QxR:

Quote:

Whilst we are happy for our releases to be re-posted on a platform we aren't on, please do so in an 'as-is' format. We ask that you do not create a new torrent, include all descriptions you see above including the QxR logo, tags, notes and screenshots. If you'd like to become a permanent poster on a website we don't post to, feel free to get in contact with a QxR member.


Files:

Vampire's Kiss (1988) (1080p BluRay x265 HEVC 10bit AAC 2.0 FreetheFish)
  • Vampire's Kiss (1988) (1080p BluRay x265 FreetheFish).mkv (3.4 GB)

Comments

Code:

  • udp://tracker.coppersurfer.tk:6969/announce