almost human ita
[Leopard-Raws] Sword Art Online Alternative: Gun Gale Online - 01 RAW (BS11 1280x720 x264 AAC) mp45.8 Lara Croft: Tomb Raider (2001)
Howard Stern Show

Rampage.2018.Movies.720p.HD.TS.x264.AAC.Clean.AC3.Eng.Audio.LLG

  • Category Movies
  • Type h.264/x264
  • Language English
  • Total size 962.0 MB
  • Uploaded By LifeLongg
  • Downloads 2475
  • Last checked 38 minutes ago
  • Date uploaded 1 day ago
  • Seeders 88
  • Leechers 56

Rampage

ActionAdventureScience Fiction

Primatologist Davis Okoye shares an unshakable bond with George, the extraordinarily intelligent, silverback gorilla who has been in his care since birth. But a rogue genetic experiment gone awry mutates this gentle ape into a raging creature of enormous size. To make matters worse, it’s soon discovered there are other similarly altered animals. As these newly created alpha predators tear across North America, destroying everything in their path, Okoye teams with a discredited genetic engineer to secure an antidote, fighting his way through an ever-changing battlefield, not only to halt a global catastrophe but to save the fearsome creature that was once his friend.

Infohash : FDB991FAF254908C5177145BCB18C36FCD057806





******************************Thumbnail:**********************



******************************Screenshots:********************

Screenshot 1

Screenshot 2

Screenshot 3

Screenshot 4

Screenshot 5

Screenshot 6

Screenshot 7

Screenshot 8

Screenshot 9

Screenshot 0

**************************************************************

Complete name                            : Rampage.2018.Movies.HD.TS.x264.AAC.Clean.AC3.Eng.Audio.LLG.mp4
Format                                   : MPEG-4
Format profile                           : Base Media
Codec ID                                 : isom (isom/iso2/avc1/mp41)
File size                                : 950 MiB
Duration                                 : 1 h 39 min
Overall bit rate                         : 1 333 kb/s
Writing application                      : Lavf57.56.101

Video
ID                                       : 1
Format                                   : AVC
Format/Info                              : Advanced Video Codec
Format profile                           : [email protected]
Format settings                          : CABAC / 4 Ref Frames
Format settings, CABAC                   : Yes
Format settings, RefFrames               : 4 frames
Codec ID                                 : avc1
Codec ID/Info                            : Advanced Video Coding
Duration                                 : 1 h 39 min
Bit rate                                 : 1 200 kb/s
Width                                    : 1 280 pixels
Height                                   : 720 pixels
Display aspect ratio                     : 16:9
Frame rate mode                          : Constant
Frame rate                               : 29.970 (29970/1000) FPS
Color space                              : YUV
Chroma subsampling                       : 4:2:0
Bit depth                                : 8 bits
Scan type                                : Progressive
Bits/(Pixel*Frame)                       : 0.043
Stream size                              : 856 MiB (90%)

Audio
ID                                       : 2
Format                                   : AC-3
Format/Info                              : Audio Coding 3
Codec ID                                 : ac-3
Duration                                 : 1 h 39 min
Bit rate mode                            : Constant
Bit rate                                 : 128 kb/s
Channel(s)                               : 2 channels
Channel positions                        : Front: L R
Sampling rate                            : 48.0 kHz
Frame rate                               : 31.250 FPS (1536 SPF)
Bit depth                                : 16 bits
Compression mode                         : Lossy
Stream size                              : 91.2 MiB (10%)
Language                                 : English
Service kind                             : Complete Main
Default                                  : Yes
Alternate group                          : 1

Files:

Rampage.2018.Movies.HD.TS.x264.AAC.Clean.AC3.Eng.Audio.LLG
  • Sample.ts (12.3 MB)
  • Rampage.2018.Movies.HD.TS.x264.AAC.Clean.AC3.Eng.Audio.LLG.mp4 (949.8 MB)

There are currently no comments. Feel free to leave one :)

Code:

  • udp://tracker.openbittorrent.com:80/announce
  • udp://tracker.opentrackr.org:1337/announce
  • UDP://TRACKER.LEECHERS-PARADISE.ORG:6969/ANNOUNCE